#TITLE:Pleasant Farmer;
#SUBTITLE:;
#ARTIST:jea;
#TITLETRANSLIT:;
#SUBTITLETRANSLIT:;
#ARTISTTRANSLIT:;
#CREDIT:;
#BANNER:pleasant farmer-bn.png;
#BACKGROUND:pleasant farmer-bg.png;
#LYRICSPATH:;
#CDTITLE:feer-cdtitle.png;
#MUSIC:Pleasant Farmer.mp3;
#OFFSET:-0.080;
#SAMPLESTART:100.000;
#SAMPLELENGTH:12.000;
#SELECTABLE:YES;
#BPMS:0.000=102.660;
#STOPS:;
#BGCHANGES:;
// cache tags:
#FIRSTBEAT:0.000;
#LASTBEAT:256.000;
#SONGFILENAME:Songs/Music V.I.P ^_^/Pleasant Farmer- Feer/pleasant farmer.sm;
#HASMUSIC:1;
#HASBANNER:1;
#MUSICLENGTH:149.968;
// end cache tags

//---------------dance-single - ----------------
#NOTES:
     dance-single:
     :
     Hard:
     12:
     1.000,1.000,1.000,0.113,1.000,1201.000,290.000,17.000,0.000,8.000:
1000
0000
0100
0000
0010
0000
0001
0010
0100
0000
0010
0000
0001
0000
0010
0000
0100
0000
1000
0000
0100
0000
0001
0010
0001
0000
1000
0000
0001
0100
0001
0100
,
0001
0000
1000
0000
0010
0000
0100
0001
0100
0000
1000
0000
0010
0000
0100
0000
1000
0000
0100
0000
0010
0000
0100
0010
0100
0000
0001
0000
0010
0000
0100
0000
,
1000
0000
0001
0000
0100
0000
0010
1000
0010
0000
0100
0000
1000
0000
0001
0000
0100
0000
0010
0000
0001
0000
0010
0100
0010
0000
1000
0000
0010
0100
0010
0100
,
0010
0000
1000
0000
0001
0000
0100
0001
0100
0000
1000
0000
0010
0000
0100
0000
0001
0000
1000
0000
0001
0000
0010
0001
0010
0000
1000
0000
0001
0000
0100
0000
,
0010
0000
1000
0000
0010
0000
1000
0010
1000
0000
0100
0000
0010
0000
0001
0000
0100
0000
0001
0000
0010
0000
0100
1000
0100
0000
0010
0000
1000
0100
1000
0100
,
1000
0000
0001
0000
0100
0000
0010
0001
0010
0000
1000
0000
0001
0000
0010
0000
0001
0000
0100
0000
0001
0000
1000
0010
1000
0000
0100
0000
0010
0000
0100
0000
,
1000
0000
0001
0000
0100
0000
0010
0001
0010
0000
1000
0000
0010
0000
1000
0000
0001
0000
1000
0000
0001
0000
0100
0001
0100
0000
0010
0000
1000
0001
1000
0001
,
1000
0000
0001
0000
0100
0000
0010
0001
0010
0000
1000
0000
0001
0000
0100
0000
0001
0000
0100
0000
0010
0000
1000
0010
1000
0010
1000
0000
0001
0010
0001
0010
,
0011
1000
1001
0010
0110
1000
0011
0100
0101
1000
0011
1000
1001
0100
1010
1000
,
0101
0010
0110
0001
1100
1000
0110
0001
0011
1000
0110
0001
0101
0001
1100
0101
,
0011
1000
0101
0001
1010
0100
0011
1000
0101
0010
1010
0100
1001
0010
1001
0001
,
0101
1000
0101
0010
1010
1000
1001
0010
0101
0010
1001
0010
1010
0100
0011
1001
,
0101
0010
1010
1000
1001
0010
0110
1000
0101
0010
0011
0100
1010
0100
0011
1000
,
1001
0010
0101
1000
0101
0010
1001
0100
0011
1000
0101
0001
1010
0100
0011
1001
,
1001
0000
1000
0000
0101
0000
0010
0000
1010
0000
0100
0000
0011
0000
0100
0000
1010
0000
1000
0000
1001
0000
0001
0000
1000
0010
1000
0010
1000
0100
0010
0001
,
0100
0001
0010
0100
1000
0010
1000
0100
0010
0001
0100
0001
0010
0100
1000
0001
1001
0000
0000
0000
1001
0000
0000
0000
1001
0000
0000
0100
1001
0000
0010
0000
,
1001
0000
0000
0101
1010
0000
0000
0101
1001
0110
1001
0011
1010
0000
0000
0101
,
0011
1001
0110
0011
1010
1001
0011
1010
1002
0000
2103
0000
3021
0030
0000
0110
,
0011
0000
0000
1001
0110
0000
0000
1010
1001
0110
0011
1001
0101
0000
0000
1010
,
0101
1001
0011
0110
1001
0011
1001
0101
1002
0000
2103
0000
3012
0000
0003
1100
,
0011
0000
0000
0011
1010
0000
0000
0101
1001
0101
1001
0110
0011
0000
0000
1001
,
0110
0011
1010
1001
0011
0110
1001
0110
1002
0000
2103
0000
3102
0000
0003
1010
,
0101
0000
0000
0011
1100
0000
0000
0011
1010
0101
1001
0011
1010
0000
0000
0101
,
0110
1010
0101
1001
0110
0011
1010
0101
1002
0000
1203
0000
0312
0000
0003
0110
,
1010
0000
0000
0011
0101
0000
0000
1010
1001
1001
1001
1001
1001
0000
1010
0000
,
0101
0000
0000
0000
0000
0000
0011
0000
0110
0000
0000
0000
0000
0000
1001
0000
0110
0000
0110
0000
0110
0000
0110
0000
0220
0000
0330
1000
0100
0000
0010
0000
,
1001
0000
0000
0101
1010
0000
0000
1001
0011
0011
0011
0011
0011
0000
1010
0000
,
0101
0000
0000
0011
0110
0000
0000
1010
1100
1100
1100
1100
1100
0000
0110
0000
,
0101
0000
0000
0101
1010
0000
0000
0101
1001
1001
1001
1001
1001
0000
1010
0000
,
1001
0000
0000
0101
1001
0000
0000
0011
1010
1010
1010
1010
1010
0000
1001
0000
,
0101
0000
0000
0011
1010
0000
0000
0101
0011
0011
0011
0011
0011
0000
1010
0000
,
1001
0000
0000
0000
0000
0000
0000
0000
0000
0000
0000
0000
0000
0000
0000
0000
0000
0000
0000
0000
0000
0000
0000
0000
0000
0000
0000
0000
0000
0000
0000
0000
0000
0000
0000
0000
0011
0000
0000
0000
0000
0000
0000
0000
0000
0000
0000
0000
1001
0000
0000
0000
0000
0000
0000
0000
0000
0000
0000
0000
0000
0000
0000
0000
0000
0000
0000
0000
0000
0000
0000
0000
0000
0000
0000
0000
0000
0000
0000
0000
0000
0000
0000
0000
1001
0000
0000
0000
0000
0000
0000
0000
0000
0000
0000
0000
1000
0000
0000
0000
0000
0000
0100
0000
0000
0000
0000
0000
0010
0000
0000
0000
0000
0000
0001
0000
0000
0000
0000
0000
0100
0000
0000
0000
0000
0000
0001
0000
0000
0000
0000
0000
0010
0000
0000
0000
0000
0000
0100
0000
0000
0000
0000
0000
1000
0000
0000
0000
0100
0000
0000
0000
0010
0000
0000
0000
0001
0000
0000
0000
1000
0000
0000
0000
0100
0000
0000
0000
0010
0000
0000
0000
0001
0000
0000
0000
1000
0000
0000
0000
0100
0000
0000
0000
0010
0000
0000
0000
0001
0000
0000
0000
,
1000
0000
0100
0000
0010
0000
0001
0100
0001
0000
1000
0000
0001
0000
1000
0000
0001
0000
0100
0000
0001
0000
0010
0100
0010
0000
1000
0000
0001
0100
0001
0100
,
0001
0000
0010
0000
0100
0000
0010
0001
0010
0000
1000
0000
0001
0000
0100
0000
0010
0000
1000
0000
0001
0000
0010
1000
0010
0000
0100
0000
1000
0000
0001
0000
,
0100
0000
0001
0000
0100
0000
0001
0100
0001
0000
0010
0000
0100
0000
1000
0000
0001
0000
0100
0000
0010
0000
0100
1000
0100
0000
0010
0000
0001
1000
0001
1000
,
0001
0000
1000
0000
0001
0000
0100
0001
0100
0000
0010
0000
1000
0000
0100
0000
0010
0000
0100
0000
0001
0000
0010
0100
0010
0000
1000
0000
0010
0000
1000
0000
,
0001
0000
0010
0000
0100
0000
0010
0001
0010
0000
1000
0000
0100
0000
0010
0000
0100
0000
1000
0000
0001
0000
0100
0001
0100
0000
0010
0000
1000
0010
1000
0010
,
1000
0000
0100
0000
0001
0000
0100
1000
0100
0000
0010
0000
0001
0000
0010
0000
0100
0000
1000
0000
0001
0000
0100
0010
0100
0000
1000
0000
0001
0000
0100
0000
,
0001
0000
1000
0000
0100
0000
0010
0001
0010
0000
0100
0000
1000
0000
0100
0000
0010
0000
0001
0000
0010
0000
0100
1000
0100
0000
0010
0000
0100
0010
0100
0010
,
0100
0000
0001
0000
0100
0000
0001
0010
0001
0000
1000
0000
0100
0000
0010
0000
0100
0000
0001
0000
0010
0000
1000
0000
0011
0000
0000
0000
0000
0000
0100
0000
,
0011
0000
0000
1000
0101
0000
0000
1000
0011
0011
0011
0011
0011
0000
1010
0000
,
0101
0000
0000
0000
0000
0000
0010
0000
1100
0000
0000
0000
0000
0000
0010
0000
0101
0000
0101
0000
0101
0000
0101
0000
0202
0000
0303
1000
0011
0000
0100
0000
,
1010
0000
0000
0001
1010
0000
0000
0100
0011
0011
0011
0011
0011
0000
1010
0000
,
0101
0000
0000
0100
1001
0000
0000
0001
1010
1010
1010
1010
1010
0000
1001
0000
,
0011
0000
0000
1000
0101
0000
0000
0010
1010
1010
1010
1010
1010
0000
0011
0000
,
1001
0000
0000
0010
0101
0000
0000
1000
0110
0110
0110
0110
0110
0000
1010
0000
,
0101
0000
0000
0001
0101
0000
0000
1000
0101
0101
0101
0101
0101
0000
1010
0000
,
0011
0000
0000
0010
1001
0000
0000
1000
0101
0000
0101
0000
0101
0000
0101
0000
,
1000
0100
0010
0001
0010
0100
1000
0001
1000
0010
1000
0100
0010
0001
0100
0001
0010
0100
1000
0010
1000
0100
0010
0001
0100
0001
0010
0100
1000
0100
0010
0100
,
1000
0001
0010
0100
0010
0001
1000
0001
0100
0001
0010
0100
1000
0010
1000
0100
0010
0001
0100
0001
0010
0100
1000
0001
0010
0100
0010
0001
1000
0100
0010
0100
,
1000
0100
0010
0001
0100
0001
0010
0100
1000
0010
1000
0100
0010
0001
0100
0001
0010
0100
0010
0001
1000
0100
0010
0100
1000
0010
1000
0100
0010
0001
0100
0001
,
0010
0100
1000
0010
1000
0100
0010
0001
0100
0001
0010
0100
0010
0001
1000
0100
0010
0100
1000
0100
0010
0100
0001
0010
0100
1000
0010
1000
0100
0010
0001
0100
,
0001
0010
0100
1000
0010
1000
0100
0010
0001
0100
0001
0010
0100
1000
0010
1000
0100
0010
0100
0010
0001
1000
0001
0100
0010
1000
0010
1000
0100
0010
0100
0010
,
0001
1000
0001
0100
0001
1000
0001
0010
0100
1000
0010
1000
0100
0010
0001
0100
0001
0010
0100
1000
0001
0100
0001
1000
0010
1000
0100
0010
0001
0100
0001
0010
,
0100
1000
0001
0010
0100
1000
0001
0010
0100
1000
0010
1000
0100
0010
0001
0100
0001
0010
0100
1000
0001
0100
1000
0100
0001
0010
0100
1000
0001
0100
0001
1000
,
0010
1000
0100
0010
0001
0100
0001
0010
0100
1000
0010
1000
0100
0010
0001
0100
0001
0100
0001
0010
0100
1000
0010
1000
0200
0000
0000
0000
0010
0000
0000
0300
,
0100
0010
0001
0010
0100
1000
0010
1000
0100
0010
0001
0100
0001
0010
1000
0010
1000
0100
0010
0001
0100
0001
0010
0100
1000
0100
0010
0001
1000
0100
0010
0001
,
1000
0100
0010
0001
0100
0001
0010
0100
1000
0100
0010
0100
0010
0001
1000
0001
0100
0010
1000
0001
0100
0010
1000
0010
1000
0100
0010
0001
0100
0001
0010
0100
,
1000
0001
0010
0100
1000
0100
0010
0100
0010
0001
1000
0001
0100
0010
1000
0010
1000
0100
0010
0001
0100
0001
0010
0100
1000
0001
0100
0001
1000
0010
1000
0100
,
0010
0001
0100
0001
0010
0100
1000
0100
0010
0001
0100
0001
0010
0100
1000
0010
1000
0100
0010
0001
0100
0001
0010
0100
1000
0100
0010
0100
0010
0001
1000
0001
,
0100
0001
1000
0001
0100
0001
0010
0100
1000
0001
0100
0010
1000
0010
1000
0100
0010
0001
0100
0001
0010
0100
1000
0001
0100
0010
1000
0010
1000
0100
0010
0001
,
0100
0001
0010
0100
1000
0001
0100
0010
1000
0010
1000
0100
0010
0001
0100
0001
0010
0100
1000
0100
0010
0001
0100
0001
0010
0100
1000
0010
1000
0100
0010
0001
,
0100
0001
0100
0001
0010
0100
1000
0010
1000
0100
0010
0001
0100
0001
0010
0100
1000
0010
1000
0100
0010
0001
0100
0001
0010
0100
1000
0010
1000
0100
0010
0001
,
0100
0001
0010
0001
0100
0001
0010
0100
1000
0010
1000
0100
0010
0001
0100
0001
1001
0000
0000
0000
1001
0000
0000
0000
1001
0000
0000
0000
1001
0000
0000
0000
,
1001
0000
0000
0000
;
